The.Nut.Job.2.Nutty.by.Nature.2017.MULTi.1080p.BluRay.x264-LOST

  • Category Movies
  • Type HD
  • Language English
  • Total size 6.6 GB
  • Uploaded By showstopper
  • Downloads 23
  • Last checked 11 minutes ago
  • Date uploaded 3 days ago
  • Seeders 2
  • Leechers 4

The Nut Job 2: Nutty by Nature

FamilyAnimationAdventureComedy

When the evil mayor of Oakton decides to bulldoze Liberty Park and build a dangerous amusement park in its place, Surly Squirrel and his ragtag group of animal friends need to band together to save their home, defeat the mayor, and take back the park.

Infohash : 89775D17A8A91756ABDD67F67B3D6DBA0E706503

The.Nut.Job.2.Nutty.by.Nature.2017.MULTi.1080p.BluRay.x264-LOST

ImDb: http://www.imdb.com/title/tt3486626



Complete name : the.nut.job.2.nutty.by.nature.2017.multi.1080p.bluray.x264-lost.mkv
Format : Matroska
Format version : Version 2
File size : 6.55 GiB
Duration : 1 h 31 min
Overall bit rate : 10.3 Mb/s
Writing application : mkvmerge v6.6.0 ('The Edge Of The In Between') built on Dec 1 2013 17:55:00
Writing library : libebml v1.3.0 + libmatroska v1.4.1

Video
ID : 1
Format : AVC
Format/Info : Advanced Video Codec
Format profile : [email protected]
Format settings, CABAC : Yes
Format settings, ReFrames : 4 frames
Codec ID : V_MPEG4/ISO/AVC
Duration : 1 h 31 min
Bit rate : 8 522 kb/s
Width : 1 920 pixels
Height : 1 040 pixels
Display aspect ratio : 1.85:1
Frame rate mode : Constant
Frame rate : 23.976 (24000/1001) FPS
Color space : YUV
Chroma subsampling : 4:2:0
Bit depth : 8 bits
Scan type : Progressive
Bits/(Pixel*Frame) : 0.178
Stream size : 5.30 GiB (81%)
Writing library : x264 core 152 r2851 ba24899
Encoding settings : cabac=1 / ref=4 / deblock=1:0:0 / analyse=0x3:0x113 / me=umh / subme=8 / psy=1 / psy_rd=1.00:0.00 / mixed_ref=1 / me_range=16 / chroma_me=1 / trellis=1 / 8x8dct=1 / cqm=0 / deadzone=21,11 / fast_pskip=1 / chroma_qp_offset=-2 / threads=18 / lookahead_threads=3 / sliced_threads=0 / nr=0 / decimate=1 / interlaced=0 / bluray_compat=0 / constrained_intra=0 / bframes=3 / b_pyramid=2 / b_adapt=2 / b_bias=0 / direct=3 / weightb=1 / open_gop=0 / weightp=2 / keyint=240 / keyint_min=24 / scenecut=40 / intra_refresh=0 / rc_lookahead=50 / rc=2pass / mbtree=1 / bitrate=8522 / ratetol=1.0 / qcomp=0.60 / qpmin=0 / qpmax=69 / qpstep=4 / cplxblur=20.0 / qblur=0.5 / ip_ratio=1.40 / aq=1:1.00
Language : English
Default : Yes
Forced : No

Audio #1
ID : 2
Format : AC-3
Format/Info : Audio Coding 3
Format settings, Endianness : Big
Codec ID : A_AC3
Duration : 1 h 31 min
Bit rate mode : Constant
Bit rate : 256 kb/s
Channel(s) : 2 channels
Channel positions : Front: L R
Sampling rate : 48.0 kHz
Frame rate : 31.250 FPS (1536 spf)
Bit depth : 16 bits
Compression mode : Lossy
Stream size : 167 MiB (2%)
Title : French AC3 256kbps
Language : French
Service kind : Complete Main
Default : Yes
Forced : No

Audio #2
ID : 3
Format : DTS
Format/Info : Digital Theater Systems
Mode : 16
Format settings, Endianness : Big
Codec ID : A_DTS
Duration : 1 h 31 min
Bit rate mode : Constant
Bit rate : 1 509 kb/s
Channel(s) : 6 channels
Channel positions : Front: L C R, Side: L R, LFE
Sampling rate : 48.0 kHz
Frame rate : 93.750 FPS (512 spf)
Bit depth : 24 bits
Compression mode : Lossy
Stream size : 985 MiB (15%)
Title : English DTS 1509kbps
Language : English
Default : Yes
Forced : No

Text #1
ID : 4
Format : UTF-8
Codec ID : S_TEXT/UTF8
Codec ID/Info : UTF-8 Plain Text
Title : French
Language : French
Default : No
Forced : No

Text #2
ID : 5
Format : UTF-8
Codec ID : S_TEXT/UTF8
Codec ID/Info : UTF-8 Plain Text
Title : French SDH
Language : French
Default : No
Forced : No

Menu
00:00:00.000 : en:00:00:00.000
00:03:50.313 : en:00:03:50.313
00:08:22.043 : en:00:08:22.043
00:11:13.715 : en:00:11:13.715
00:15:12.036 : en:00:15:12.036
00:21:43.636 : en:00:21:43.636
00:26:14.114 : en:00:26:14.114
00:29:11.833 : en:00:29:11.833
00:34:00.789 : en:00:34:00.789
00:37:21.364 : en:00:37:21.364
00:42:34.510 : en:00:42:34.510
00:48:18.896 : en:00:48:18.896
00:52:09.043 : en:00:52:09.043
00:55:53.725 : en:00:55:53.725
01:02:19.069 : en:01:02:19.069
01:05:39.352 : en:01:05:39.352
01:08:30.648 : en:01:08:30.648
01:13:08.092 : en:01:13:08.092
01:18:30.039 : en:01:18:30.039
01:21:07.529 : en:01:21:07.529






Click To View Screenshot

Click To View Screenshot

Click To View Screenshot

Files:

The.Nut.Job.2.Nutty.by.Nature.2017.MULTi.1080p.BluRay.x264-LOST
  • the.nut.job.2.nutty.by.nature.2017.multi.1080p.bluray.x264-lost.mkv (6.6 GB)
  • the.nut.job.2.nutty.by.nature.2017.multi.1080p.bluray.x264-lost.nfo (4.3 KB)

There are currently no comments. Feel free to leave one :)

Code:

  • udp://tracker.coppersurfer.tk:6969/announce
  • udp://tracker.pirateparty.gr:6969/announce
  • udp://shadowshq.yi.org:6969/announce
  • udp://eddie4.nl:6969/announce
  • udp://tracker.leechers-paradise.org:6969/announce
  • udp://tracker.opentrackr.org:1337/announce
  • udp://p4p.arenabg.ch:1337/announce
  • udp://p4p.arenabg.com:1337/announce
  • udp://9.rarbg.me:2710/announce
  • udp://9.rarbg.to:2710/announce
  • udp://ipv4.tracker.harry.lu:80/announce
  • udp://tracker.grepler.com:6969/announce
  • udp://public.popcorn-tracker.org:6969/announce
  • udp://tracker.opentrackr.org:1337/announce
  • udp://tracker.zer0day.to:1337/announce