Lucifer.S03E07.1080p.WEB.x264-TBS[rarbg]

  • Category TV
  • Type HD
  • Language English
  • Total size 1.5 GB
  • Uploaded By OZIRUM
  • Downloads 517
  • Last checked 4 days ago
  • Date uploaded 1 week ago
  • Seeders 151
  • Leechers 30
90%
November 14, 2017, 2:00 am

Lucifer

A reporter seeks revenge after he discovers that Lucifer has been sleeping with his estranged wife. However, when it's revealed that Linda is the reporter's estranged wife, things get messy. Lucifer's reputation and safety are on the line, especially when a serial killer from the past resurfaces.

Infohash : 8CD27E05B7F3694CC36B62E934AD7FF98675905A

IMDB: http://imdb.com/title/tt4052886/

Video
ID : 1
Format : AVC
Format/Info : Advanced Video Codec
Format profile : [email protected]
Format settings : CABAC / 2 Ref Frames
Format settings, CABAC : Yes
Format settings, RefFrames : 2 frames
Codec ID : V_MPEG4/ISO/AVC
Duration : 44 min 9 s
Bit rate : 4 920 kb/s
Width : 1 920 pixels
Height : 1 080 pixels
Display aspect ratio : 16:9
Frame rate mode : Constant
Frame rate : 23.976 (24000/1001) FPS
Original frame rate : 24.000 FPS
Color space : YUV
Chroma subsampling : 4:2:0
Bit depth : 8 bits
Scan type : Progressive
Bits/(Pixel*Frame) : 0.099
Stream size : 1.49 GiB (97%)
Writing library : x264 core 148 r2579M 73ae2d1
Encoding settings : cabac=1 / ref=2 / deblock=1:0:0 / analyse=0x3:0x113 / me=hex / subme=2 / psy=1 / psy_rd=1.00:0.00 / mixed_ref=0 / me_range=16 / chroma_me=1 / trellis=0 / 8x8dct=1 / cqm=0 / deadzone=21,11 / fast_pskip=1 / chroma_qp_offset=0 / threads=1 / lookahead_threads=1 / sliced_threads=0 / nr=250 / decimate=1 / interlaced=0 / bluray_compat=0 / stitchable=1 / constrained_intra=0 / bframes=0 / weightp=1 / keyint=250 / keyint_min=24 / scenecut=40 / intra_refresh=0 / rc_lookahead=10 / rc=2pass / mbtree=1 / bitrate=4920 / ratetol=1.0 / qcomp=0.60 / qpmin=5 / qpmax=69 / qpstep=4 / cplxblur=20.0 / qblur=0.5 / ip_ratio=1.40 / aq=1:1.00
Default : Yes
Forced : No

Audio
ID : 2
Format : AAC
Format/Info : Advanced Audio Codec
Format profile : HE-AAC / LC
Format settings : Implicit
Codec ID : A_AAC-2
Duration : 44 min 9 s
Bit rate : 127 kb/s
Channel(s) : 2 channels
Channel positions : Front: L R
Sampling rate : 48.0 kHz / 24.0 kHz
Frame rate : 23.438 FPS (1024 SPF)
Compression mode : Lossy
Stream size : 40.0 MiB (3%)
Default : Yes
Forced : No

Files:

Lucifer.S03E07.1080p.WEB.x264-TBS[rarbg]
  • RARBG.txt (0.0 KB)
  • lucifer.s03e07.1080p.web.x264-tbs.mkv (1.5 GB)
  • lucifer.s03e07.1080p.web.x264-tbs.nfo (0.0 KB)

There are currently no comments. Feel free to leave one :)

Code:

  • http://tracker.trackerfix.com:80/announce
  • udp://9.rarbg.me:2710/announce
  • udp://9.rarbg.to:2710/announce