Oldboy 2003 RM (1080p Bluray x265 HEVC 10bit AAC 5.1 Korean Tigol...

  • Category Movies
  • Type HEVC/x265
  • Language Korean
  • Total size 6.6 GB
  • Uploaded By UTRplus
  • Downloads 266
  • Last checked 4 days ago
  • Date uploaded 1 week ago
  • Seeders 28
  • Leechers 17

Oldboy

ActionDramaMysteryThriller

Oldboy is the revenge drama from Director Park Chan-wook. Based on a Manga comic it depicts the suffering path of a man who must deal with the never ending torment of having unknowingly made someone his enemy.

Infohash : EDC8320F50BDB34D25EA51F8F1F11B7271790F41



Oldboy 2003 Remastered in 1080p, encoded with x265 in HEVC and AAC 5.1 Korean, with English and Korean subtitles!
Encoded using the time consuming 2 pass, 10 bit color at 5000 kbps, from a Blu-ray source, for the highest quality possible.



Media Information

Code:

General
Format : Matroska
Format version : Version 4 / Version 2
File size : 4.57 GiB
Duration : 2 h 0 min
Overall bit rate : 5 433 kb/s
Movie name : Oldboy: Digital Remastering Edition
Encoded date : UTC 2017-10-16 23:28:30
Writing application : mkvmerge v14.0.0 ('Flow') 64bit
Writing library : libebml v1.3.4 + libmatroska v1.4.5

Video
ID : 1
Format : HEVC
Format/Info : High Efficiency Video Coding
Format profile : Main [email protected]@Main
Codec ID : V_MPEGH/ISO/HEVC
Duration : 2 h 0 min
Bit rate : 4 998 kb/s
Width : 1 920 pixels
Height : 816 pixels
Display aspect ratio : 2.35:1
Frame rate mode : Constant
Frame rate : 23.976 (24000/1001) FPS
Color space : YUV
Chroma subsampling : 4:2:0
Bit depth : 10 bits
Bits/(Pixel*Frame) : 0.133
Stream size : 4.20 GiB (92%)
Writing library : x265 2.5+22-8db95a1da9f8:[Windows][GCC 7.1.0][64 bit] 10bit
Encoding settings : cpuid=1173503 / frame-threads=3 / numa-pools=8 / wpp / no-pmode / no-pme / no-psnr / no-ssim / log-level=2 / input-csp=1 / input-res=1920x816 / interlace=0 / total-frames=173232 / level-idc=0 / high-tier=1 / uhd-bd=0 / ref=4 / no-allow-non-conformance / no-repeat-headers / annexb / no-aud / no-hrd / info / hash=0 / no-temporal-layers / open-gop / min-keyint=23 / keyint=250 / bframes=4 / b-adapt=2 / b-pyramid / bframe-bias=0 / rc-lookahead=25 / lookahead-slices=4 / scenecut=40 / no-intra-refresh / ctu=64 / min-cu-size=8 / rect / no-amp / max-tu-size=32 / tu-inter-depth=1 / tu-intra-depth=1 / limit-tu=0 / rdoq-level=2 / dynamic-rd=0.00 / no-ssim-rd / signhide / no-tskip / nr-intra=0 / nr-inter=0 / no-constrained-intra / strong-intra-smoothing / max-merge=3 / limit-refs=3 / limit-modes / me=3 / subme=3 / merange=57 / temporal-mvp / weightp / no-weightb / no-analyze-src-pics / deblock=0:0 / sao / no-sao-non-deblock / rd=4 / no-early-skip / rskip / no-fast-intra / no-tskip-fast / no-cu-lossless / no-b-intra / no-splitrd-skip / rdpenalty=0 / psy-rd=2.00 / psy-rdoq=1.00 / no-rd-refine / analysis-reuse-mode=0 / no-lossless / cbqpoffs=0 / crqpoffs=0 / rc=abr / bitrate=5000 / qcomp=0.60 / qpstep=4 / stats-write=0 / stats-read=2 / cplxblur=20.0 / qblur=0.5 / ipratio=1.40 / pbratio=1.30 / aq-mode=2 / aq-strength=1.00 / cutree / zone-count=0 / no-strict-cbr / qg-size=32 / no-rc-grain / qpmax=69 / qpmin=0 / no-const-vbv / sar=0 / overscan=0 / videoformat=5 / range=0 / colorprim=2 / transfer=2 / colormatrix=2 / chromaloc=0 / display-window=0 / max-cll=0,0 / min-luma=0 / max-luma=1023 / log2-max-poc-lsb=8 / vui-timing-info / vui-hrd-info / slices=1 / opt-qp-pps / opt-ref-list-length-pps / no-multi-pass-opt-rps / scenecut-bias=0.05 / no-opt-cu-delta-qp / no-aq-motion / no-hdr / no-hdr-opt / no-dhdr10-opt / analysis-reuse-level=5 / scale-factor=0 / refine-intra=0 / refine-inter=0 / refine-mv=0 / no-limit-sao / ctu-info=0
Default : Yes
Forced : No

Audio #1
ID : 2
Format : AAC
Format/Info : Advanced Audio Codec
Format profile : LC
Codec ID : A_AAC
Duration : 2 h 0 min
Bit rate : 353 kb/s
Channel(s) : 6 channels
Channel positions : Front: L C R, Side: L R, LFE
Sampling rate : 48.0 kHz
Frame rate : 46.875 FPS (1024 spf)
Compression mode : Lossy
Delay relative to video : 20 ms
Stream size : 305 MiB (7%)
Language : Korean
Default : Yes
Forced : No

Audio #2
ID : 3
Format : AAC
Format/Info : Advanced Audio Codec
Format profile : HE-AAC / LC
Codec ID : A_AAC
Duration : 2 h 0 min
Bit rate : 66.2 kb/s
Channel(s) : 2 channels
Channel positions : Front: L R
Sampling rate : 48.0 kHz / 24.0 kHz
Frame rate : 23.438 FPS (1024 spf)
Compression mode : Lossy
Delay relative to video : 40 ms
Stream size : 56.7 MiB (1%)
Title : Commentary
Language : English
Default : No
Forced : No

Text #1
ID : 4
Format : VobSub
Muxing mode : zlib
Codec ID : S_VOBSUB
Codec ID/Info : Picture based subtitle format used on DVDs
Duration : 1 h 58 min
Bit rate : 4 706 b/s
Count of elements : 924
Stream size : 4.00 MiB (0%)
Language : English
Default : Yes
Forced : No

Text #2
ID : 5
Format : VobSub
Muxing mode : zlib
Codec ID : S_VOBSUB
Codec ID/Info : Picture based subtitle format used on DVDs
Duration : 1 h 58 min
Bit rate : 5 209 b/s
Count of elements : 1015
Stream size : 4.43 MiB (0%)
Language : Korean
Default : No
Forced : No

Text #3
ID : 6
Format : VobSub
Muxing mode : zlib
Codec ID : S_VOBSUB
Codec ID/Info : Picture based subtitle format used on DVDs
Duration : 1 h 59 min
Bit rate : 11.0 kb/s
Count of elements : 1451
Stream size : 9.40 MiB (0%)
Title : Commentary
Language : Korean
Default : No
Forced : No

Menu
00:00:00.000 : en:Chapter 01
00:06:29.472 : en:Chapter 02
00:12:26.746 : en:Chapter 03
00:17:09.153 : en:Chapter 04
00:24:09.239 : en:Chapter 05
00:29:11.541 : en:Chapter 06
00:34:28.232 : en:Chapter 07
00:39:13.809 : en:Chapter 08
00:43:07.835 : en:Chapter 09
00:47:02.778 : en:Chapter 10
00:53:18.320 : en:Chapter 11
00:57:53.595 : en:Chapter 12
01:01:46.119 : en:Chapter 13
01:07:24.623 : en:Chapter 14
01:15:00.245 : en:Chapter 15
01:20:01.588 : en:Chapter 16
01:25:43.638 : en:Chapter 17
01:29:41.125 : en:Chapter 18
01:33:24.181 : en:Chapter 19
01:37:59.915 : en:Chapter 20
01:42:54.793 : en:Chapter 21
01:48:16.114 : en:Chapter 22
01:49:57.841 : en:Chapter 23
01:51:57.127 : en:Chapter 24
01:55:29.797 : en:Chapter 25
01:58:02.116 : en:Chapter 26


Source Information

Code:

Complete name : Oldboy_Digital_Remastering_Edition_t05.mkv
File size : 30.3 GiB
Duration : 2 h 0 min
Overall bit rate mode : Variable
Overall bit rate : 36.0 Mb/s


Files:

Oldboy 2003 RM (1080p Bluray x265 HEVC 10bit AAC 5.1 Korean Tigole) Featurettes
  • Deleted Scenes [kr].mkv (115.6 MB)
  • Director Park Chan-wook's Introduction.mkv (8.9 MB)
  • Film Critics on Oldboy.mkv (273.1 MB)
  • Filmmakers on Oldboy.mkv (155.9 MB)
  • Old Days (2016).mkv (1.2 GB)
  • On the Digital Remaster.mkv (71.9 MB)
  • Photographer of Time.mkv (86.1 MB)
  • Short - Judgment (1999).mkv (109.6 MB)
  • Starsailor - Bring My Love.mkv (7.7 MB)
  • Oldboy 2003 RM (1080p x265 10bit Tigole).mkv (4.6 GB)

Comments

Code:

  • udp://tracker.torrent.eu.org:451/announce
  • udp://tracker.opentrackr.org:1337/announce
  • udp://tracker.coppersurfer.tk:6969/announce